Torrent Details

Skyscraper 2018 BRRip XviD B4ND1T69
Skyscraper 2018 BRRip XviD B4ND1T69
Size1 GB in 5 files
ReleasesAdded on 04.10.2018 at 1:56 into the Movies category by Unknown.
Status15 seeds & 6 peers.
Hash4110a0d4825b3dc6e59c02f9971715592dbeb15d
Rating
  • YourBT Visitors

Status This torrent has been verified.
*

Torrent Description

Skyscraper.2018.BRRip.XviD.B4ND1T69



Director: Rawson Marshall Thurber
Writer: Rawson Marshall Thurber
Stars: Dwayne Johnson, Neve Campbell, Chin Han

Plot/Story:
FBI Hostage Rescue Team leader and U.S. war veteran Will Sawyer now assesses security for skyscrapers. On assignment in Hong Kong he finds the tallest, safest building in the world suddenly ablaze and he's been framed for it. A wanted man on the run, Will must find those responsible, clear his name and somehow rescue his family who are trapped inside the building - above the fire line.

General
Complete name : Skyscraper.2018.BRRip.XviD.B4ND1T69.avi
Format : AVI
Format/Info : Audio Video Interleave
File size : 1.03 GiB
Duration : 1 h 42 min
Overall bit rate : 1 435 kb/s
Subtitles : Yes...Hardcoded for non-English + File Included(HI)

Video
ID : 0
Format : MPEG-4 Visual
Format profile : Advanced [email protected]
Format settings, BVOP : 2
Format settings, QPel : No
Format settings, GMC : No warppoints
Format settings, Matrix : Default (H.263)
Codec ID : XVID
Codec ID/Hint : XviD
Duration : 1 h 42 min
Bit rate : 1 293 kb/s
Width : 720 pixels
Height : 304 pixels
Display aspect ratio : 2.35:1
Frame rate : 23.976 (24000/1001) FPS
Color space : YUV
Chroma subsampling : 4:2:0
Bit depth : 8 bits
Scan type : Progressive
Compression mode : Lossy
Bits/(Pixel*Frame) : 0.246
Stream size : 947 MiB (90%)
Writing library : XviD 64

Audio
ID : 1
Format : MPEG Audio
Format version : Version 1
Format profile : Layer 3
Codec ID : 55
Codec ID/Hint : MP3
Duration : 1 h 42 min
Bit rate mode : Constant
Bit rate : 128 kb/s
Channel(s) : 2 channels
Sampling rate : 48.0 kHz
Compression mode : Lossy
Stream size : 93.8 MiB (9%)
Alignment : Aligned on interleaves
Interleave, duration : 24 ms (0.58 video frame)

Screenshots:









Please Seed For As Long As Possible
Or At Least 1:1 Ratio...Thanks
Enjoy Peeps



Similar Torrents

No Similar Torrents Found

If we find similar torrents, we normally show them right here. We couldn't find anything for "".

Torrent Trackers

TRACKER URLSEEDSPEERS
Onlineudp://tracker.coppersurfer.tk:6969/announce155
Onlineudp://tracker.pirateparty.gr:6969/announce154
Onlineudp://tracker.opentrackr.org:1337/announce126
Onlineudp://tracker.zer0day.to:1337/announce52
Onlineudp://tracker.open-internet.nl:6969/announce50
Onlineudp://mgtracker.org:6969/announce21

Files inside this torrent

FILENAMESIZE
icon 1337x text file.txt61 B
icon Downloaded from katcr.co.txt139 B
icon Seeded by Seedplease SeedBoxes.txt198 B
icon Skyscraper.2018.BRRip.XviD.B4ND1T69.avi1 GB
icon Skyscraper.2018.BRRip.XviD.B4ND1T69.srt98.5 KB