Torrent Details

Johnny English 2003 720p BluRay x264 Dual Audio [Hindi DD 2 0 - English 2 0] ESub [MW]
Johnny English 2003 720p BluRay x264 Dual Audio [Hindi DD 2 0 - English 2 0] ESub [MW]
Size1.1 GB in 1 file
ReleasesAdded on 04.10.2018 at 9:32 into the Movies category by Unknown.
Status94 seeds & 30 peers.
Hasha1996d59091455d9637577cf139e3a77a43c02c2
Rating
  • YourBT Visitors

Status This torrent has been verified.
*

Torrent Description

General
Format : Matroska
Format version : Version 4 / Version 2
File size : 1.11 GiB
Duration : 1 h 27 min
Overall bit rate : 1 821 kb/s

Video
ID : 1
Format : AVC
Format/Info : Advanced Video Codec
Format profile : [email protected]
Format settings : CABAC / 4 Ref Frames
Format settings, CABAC : Yes
Format settings, RefFrames : 4 frames
Codec ID : V_MPEG4/ISO/AVC
Duration : 1 h 27 min
Bit rate : 1 500 kb/s
Width : 1 280 pixels
Height : 694 pixels
Display aspect ratio : 1.85:1
Frame rate mode : Constant
Frame rate : 23.976 (23976/1000) FPS
Color space : YUV
Chroma subsampling : 4:2:0
Bit depth : 8 bits
Scan type : Progressive
Bits/(Pixel*Frame) : 0.070
Stream size : 937 MiB (82%)
Writing library : x264 core 152 r2851M ba24899
Default : Yes
Forced : No

Audio #1
ID : 2
Format : AC-3
Format/Info : Audio Coding 3
Codec ID : A_AC3
Duration : 1 h 27 min
Bit rate mode : Constant
Bit rate : 224 kb/s
Channel(s) : 2 channels
Channel positions : Front: L R
Sampling rate : 48.0 kHz
Frame rate : 31.250 FPS (1536 SPF)
Bit depth : 16 bits
Compression mode : Lossy
Stream size : 140 MiB (12%)
Language : Hindi
Service kind : Complete Main
Default : Yes
Forced : No

Audio #2
ID : 3
Format : AAC
Format/Info : Advanced Audio Codec
Format profile : LC
Codec ID : A_AAC-2
Duration : 1 h 27 min
Bit rate : 96.0 kb/s
Channel(s) : 2 channels
Channel positions : Front: L R
Sampling rate : 48.0 kHz
Frame rate : 46.875 FPS (1024 SPF)
Compression mode : Lossy
Stream size : 60.0 MiB (5%)
Language : English
Default : No
Forced : No

Text
ID : 4
Format : UTF-8
Codec ID : S_TEXT/UTF8
Codec ID/Info : UTF-8 Plain Text
Duration : 1 h 24 min
Bit rate : 65 b/s
Count of elements : 1097
Stream size : 40.4 KiB (0%)
Default : Yes
Forced : No


Click To Enlarge Image








Similar Torrents

No Similar Torrents Found

If we find similar torrents, we normally show them right here. We couldn't find anything for "".

Torrent Trackers

TRACKER URLSEEDSPEERS
Onlineudp://tracker.pirateparty.gr:6969/announce9430
Onlineudp://tracker.coppersurfer.tk:6969/announce9027
Onlineudp://tracker.opentrackr.org:1337/announce7518
Onlineudp://tracker.open-internet.nl:6969/announce5514
Onlineudp://mgtracker.org:6969/announce4913
Onlineudp://tracker.zer0day.to:1337/announce299

Files inside this torrent

FILENAMESIZE
icon Johnny English 2003 720p BluRay x264 Dual Audio [Hindi DD 2.0 - English 2.0] ESub [MW].mkv1.1 GB