Torrent Details

Photo Not Available
Ant Man and the Wasp (2018) 720p BRRip Dual Audio (With Sample) HIN ENG (Hindi Cleaned) E Sub
Size872 MB in 4 files
ReleasesAdded on 10.04.2018 at 16:16 into the Movies category by Unknown.
Status6 seeds & 3 peers.
Hashf92cfd0bfa73f017d506b3dee31622ce793af332
Rating
  • YourBT Visitors

Status This torrent has been verified.
*

Torrent Description

[/img]












SCREENSHOTS







MEDIA INFO




www.Moviesjug.net Ant Man and the Wasp (2018) 720p BRRip Dual Audio (With Sample) HIN. ENG. (Hindi Cleaned) E Sub.mkv
Format                                   : Matroska
Format version                           : Version 4 / Version 2
File size                                : 864 MiB
Duration                                 : 1 h 58 min
Overall bit rate mode                    : Variable
Overall bit rate                         : 1 022 kb/s
Movie name                               : Downloaded From www.Moviesjug.net

Video
ID                                       : 1
Format                                   : AVC
Format/Info                              : Advanced Video Codec
Format profile                           : [email protected]
Format settings                          : CABAC / 4 Ref Frames
Format settings, CABAC                   : Yes
Format settings, RefFrames               : 4 frames
Codec ID                                 : V_MPEG4/ISO/AVC
Duration                                 : 1 h 58 min
Bit rate                                 : 846 kb/s
Width                                    : 1 280 pixels
Height                                   : 536 pixels
Display aspect ratio                     : 2.40:1
Frame rate mode                          : Variable
Frame rate                               : 23.976 (24000/1001) FPS
Color space                              : YUV
Chroma subsampling                       : 4:2:0
Bit depth                                : 8 bits
Scan type                                : Progressive
Bits/(Pixel*Frame)                       : 0.051
Stream size                              : 715 MiB (83%)
Title                                    : Downloaded From www.Moviesjug.net


Audio #1
ID                                       : 2
Format                                   : AAC
Format/Info                              : Advanced Audio Codec
Format profile                           : LC
Codec ID                                 : A_AAC-2
Duration                                 : 1 h 58 min
Bit rate                                 : 74.3 kb/s
Channel(s)                               : 2 channels
Channel positions                        : Front: L R
Sampling rate                            : 44.1 kHz
Frame rate                               : 43.066 FPS (1024 SPF)
Compression mode                         : Lossy
Delay relative to video                  : -23 ms
Stream size                              : 62.8 MiB (7%)
Title                                    : Downloaded From www.Moviesjug.net
Language                                 : English
Default                                  : Yes
Forced                                   : No

Audio #2
ID                                       : 3
Format                                   : MPEG Audio
Format version                           : Version 1
Format profile                           : Layer 3
Format settings                          : Joint stereo / MS Stereo
Codec ID                                 : A_MPEG/L3
Codec ID/Hint                            : MP3
Duration                                 : 1 h 58 min
Bit rate mode                            : Variable
Bit rate                                 : 96.0 kb/s
Channel(s)                               : 2 channels
Sampling rate                            : 44.1 kHz
Frame rate                               : 38.281 FPS (1152 SPF)
Compression mode                         : Lossy
Delay relative to video                  : -23 ms
Stream size                              : 83.3 MiB (10%)
Title                                    : Downloaded From www.Moviesjug.net
Writing library                          : LAME3.99r
Encoding settings                        : -m j -V 4 -q 3 -lowpass 15.1 --abr 96
Language                                 : Hindi
Default                                  : No
Forced                                   : No



Similar Torrents

No Similar Torrents Found

If we find similar torrents, we normally show them right here. We couldn't find anything for "".

Torrent Trackers

TRACKER URLSEEDSPEERS
Onlineudp://tracker.pirateparty.gr:6969/announce60
Onlineudp://tracker.coppersurfer.tk:6969/announce40
Onlineudp://tracker.opentrackr.org:1337/announce33
Onlineudp://tracker.open-internet.nl:6969/announce10
Onlineudp://mgtracker.org:6969/announce00
Onlineudp://tracker.zer0day.to:1337/announce03

Files inside this torrent

FILENAMESIZE
icon Read this (Important).txt91 B
icon Sample.mp48.2 MB
icon Visit Our Site www.Moviesjug.net Click Here.url112 B
icon www.Moviesjug.net Ant Man and the Wasp (2018) 720p BRRip Dual Audio (With Sample) HIN..mkv863.5 MB