Torrent Details

The Equalizer 2 2018 NEW HDTS x264 AC3 With Sample
The Equalizer 2 2018 NEW HDTS x264 AC3 With Sample
Size1.1 GB in 2 files
ReleasesAdded on 04.10.2018 at 19:20 into the Movies category by Unknown.
Status43 seeds & 19 peers.
Hash560552e495915ddd156c730fddfab4b0ad3a0c0c
Rating
  • YourBT Visitors

Status This torrent has been verified.
*

Torrent Description

******************************Thumbnail:**********************



******************************Screenshots:********************

Screenshot 1

Screenshot 2

Screenshot 3

Screenshot 4

Screenshot 5

Screenshot 6

Screenshot 7

Screenshot 8

Screenshot 9

Screenshot 0



************************************************************

The Equalizer 2.2018.NEW.HDTS.x264.AC3.With.Sample.LLG.mp4
Format : MPEG-4
Format profile : Base Media
Codec ID : isom (isom/iso2/avc1/mp41)
File size : 1.07 GiB
Duration : 1 h 55 min


Video
ID : 1
Format : AVC
Format/Info : Advanced Video Codec
Format profile : [email protected]
Format settings : CABAC / 4 Ref Frames
Format settings, CABAC : Yes
Format settings, RefFrames : 4 frames
Codec ID : avc1
Codec ID/Info : Advanced Video Coding
Duration : 1 h 55 min
Bit rate : 1 200 kb/s
Width : 720 pixels
Height : 344 pixels
Display aspect ratio : 2.093
Frame rate mode : Constant
Frame rate : 23.976 (23976/1000) FPS
Color space : YUV
Chroma subsampling : 4:2:0
Bit depth : 8 bits
Scan type : Progressive
Bits/(Pixel*Frame) : 0.202
Stream size : 984 MiB (90%)


Audio
ID : 2
Format : AC-3
Format/Info : Audio Coding 3
Commercial name : Dolby Digital
Codec ID : ac-3
Duration : 1 h 55 min
Bit rate mode : Constant
Bit rate : 128 kb/s
Channel(s) : 2 channels
Channel layout : L R
Sampling rate : 48.0 kHz
Frame rate : 31.250 FPS (1536 SPF)
Bit depth : 16 bits
Compression mode : Lossy
Stream size : 105 MiB (10%)
Language : English
Service kind : Complete Main
Default : Yes
Alternate group : 1



********************************************************



Similar Torrents

No Similar Torrents Found

If we find similar torrents, we normally show them right here. We couldn't find anything for "".

Torrent Trackers

TRACKER URLSEEDSPEERS
Onlineudp://tracker.opentrackr.org:1337/announce4319
Onlineudp://tracker.coppersurfer.tk:6969/announce2711
Onlineudp://tracker.pirateparty.gr:6969/announce2611
Onlineudp://mgtracker.org:6969/announce116
Onlineudp://tracker.open-internet.nl:6969/announce82
Onlineudp://tracker.zer0day.to:1337/announce27

Files inside this torrent

FILENAMESIZE
icon SAMPLE.mkv14.5 MB
icon The Equalizer 2.2018.NEW.HDTS.x264.AC3.With.Sample.LLG.mp41.1 GB