Torrent Details

Ant Man and the Wasp 2018 720p BluRay x264 Dual Audio [Hindi DD 5 1 - English 2 0] ESub [MW]
Ant Man and the Wasp 2018 720p BluRay x264 Dual Audio [Hindi DD 5 1 - English 2 0] ESub [MW]
Size1.3 GB in 1 file
ReleasesAdded on 06.10.2018 at 7:40 into the Movies category by Unknown.
Status72 seeds & 39 peers.
Hashdd2457b59ee2b83ef891dcca691db4c776037fc5
Rating
  • YourBT Visitors

Status This torrent has been verified.
*

Torrent Description

General
Format : Matroska
Format version : Version 4 / Version 2
File size : 1.32 GiB
Duration : 1 h 58 min
Overall bit rate : 1 604 kb/s

Video
ID : 1
Format : AVC
Format/Info : Advanced Video Codec
Format profile : [email protected]
Format settings : CABAC / 5 Ref Frames
Format settings, CABAC : Yes
Format settings, RefFrames : 5 frames
Codec ID : V_MPEG4/ISO/AVC
Duration : 1 h 58 min
Bit rate : 1 300 kb/s
Width : 1 280 pixels
Height : 536 pixels
Display aspect ratio : 2.40:1
Frame rate mode : Constant
Frame rate : 23.976 (24000/1001) FPS
Color space : YUV
Chroma subsampling : 4:2:0
Bit depth : 8 bits
Scan type : Progressive
Bits/(Pixel*Frame) : 0.079
Stream size : 1.05 GiB (80%)
Writing library : x264 core 155 r2901 7d0ff22
Default : Yes
Forced : No

Audio #1
ID : 2
Format : AC-3
Format/Info : Audio Coding 3
Codec ID : A_AC3
Duration : 1 h 58 min
Bit rate mode : Constant
Bit rate : 192 kb/s
Channel(s) : 6 channels
Channel positions : Front: L C R, Side: L R, LFE
Sampling rate : 48.0 kHz
Frame rate : 31.250 FPS (1536 SPF)
Bit depth : 16 bits
Compression mode : Lossy
Stream size : 162 MiB (12%)
Language : Hindi
Service kind : Complete Main
Default : Yes
Forced : No

Audio #2
ID : 3
Format : AAC
Format/Info : Advanced Audio Codec
Format profile : HE-AAC / LC
Format settings : Explicit
Codec ID : A_AAC-2
Duration : 1 h 58 min
Bit rate : 127 kb/s
Channel(s) : 2 channels
Channel positions : Front: L R
Sampling rate : 48.0 kHz / 24.0 kHz
Frame rate : 23.438 FPS (1024 SPF)
Compression mode : Lossy
Stream size : 107 MiB (8%)
Language : English
Default : No
Forced : No

Text
ID : 4
Format : VobSub
Muxing mode : zlib
Codec ID : S_VOBSUB
Codec ID/Info : Picture based subtitle format used on DVDs
Duration : 1 h 57 min
Bit rate : 6 859 b/s
Count of elements : 2136
Stream size : 5.77 MiB (0%)
Language : English
Default : Yes
Forced : No

Note :- Hindi DD 5.1 (RM) DTH Audio


http://pichub.site/image/EWat8
http://pichub.site/image/EWYMX
http://pichub.site/image/EWI2J
http://pichub.site/image/EWOe5
http://pichub.site/image/EWSkh
http://pichub.site/image/EWDvj



Similar Torrents

No Similar Torrents Found

If we find similar torrents, we normally show them right here. We couldn't find anything for "".

Torrent Trackers

TRACKER URLSEEDSPEERS
Onlineudp://tracker.pirateparty.gr:6969/announce7238
Onlineudp://tracker.coppersurfer.tk:6969/announce6039
Onlineudp://tracker.opentrackr.org:1337/announce5023
Onlineudp://tracker.open-internet.nl:6969/announce5017
Onlineudp://mgtracker.org:6969/announce4625
Onlineudp://tracker.zer0day.to:1337/announce58

Files inside this torrent

FILENAMESIZE
icon Ant Man and the Wasp 2018 720p BluRay x264 Dual Audio [Hindi DD 5.1 - English 2.0] ESub [MW].mkv1.3 GB