Torrent Details

Venom (2018) 720p English HDCAM x264 Mp3 by Full4movies
Venom (2018) 720p English HDCAM x264 Mp3 by Full4movies
Size765 MB in 1 file
ReleasesAdded Yesterday at 23:20 into the Movies category by Unknown.
Status10 seeds & 48 peers.
Hashec3a40147100ff29a5a0ba7014d14370fb296ad5
Rating
  • YourBT Visitors

Status This torrent has been verified.
*

Torrent Description

General
Complete name : Venom (2018) 720p English HDCAM x264 Mp3 by Full4movies.mkv
Format : Matroska
Format version : Version 4 / Version 2
File size : 765 MiB
Duration : 1 h 31 min
Overall bit rate : 1 175 kb/s
Movie name : www.Full4movies.co
Encoded date : UTC 2018-10-07 20:51:53
Writing application : mkvmerge v8.1.0 ('Psychedelic Postcard') 32bit
Writing library : libebml v1.3.1 + libmatroska v1.4.2

Video
ID : 1
Format : AVC
Format/Info : Advanced Video Codec
Format profile : [email protected]
Format settings, CABAC : Yes
Format settings, RefFrames : 4 frames
Codec ID : V_MPEG4/ISO/AVC
Duration : 1 h 31 min
Bit rate : 1 088 kb/s
Width : 1 280 pixels
Height : 536 pixels
Display aspect ratio : 2.40:1
Frame rate mode : Constant
Frame rate : 29.970 (30000/1001) FPS
Color space : YUV
Chroma subsampling : 4:2:0
Bit depth : 8 bits
Scan type : Progressive
Bits/(Pixel*Frame) : 0.053
Stream size : 712 MiB (93%)
Writing library : x264 core 155 r2901 7d0ff22
Default : Yes
Forced : No
Color range : Limited
Color primaries : BT.709
Transfer characteristics : BT.709
Matrix coefficients : BT.709

Audio
ID : 2
Format : MPEG Audio
Format version : Version 1
Format profile : Layer 3
Mode : Joint stereo
Mode extension : MS Stereo
Codec ID : A_MPEG/L3
Codec ID/Hint : MP3
Duration : 1 h 31 min
Bit rate mode : Constant
Bit rate : 80.0 kb/s
Channel(s) : 2 channels
Sampling rate : 48.0 kHz
Frame rate : 41.667 FPS (1152 SPF)
Compression mode : Lossy
Stream size : 52.1 MiB (7%)
Language : English
Default : Yes
Forced : No

Screen Shoots



Similar Torrents

No Similar Torrents Found

If we find similar torrents, we normally show them right here. We couldn't find anything for "".

Torrent Trackers

TRACKER URLSEEDSPEERS
Onlineudp://mgtracker.org:6969/announce1038
Onlineudp://tracker.opentrackr.org:1337/announce948
Onlineudp://tracker.pirateparty.gr:6969/announce739
Onlineudp://tracker.coppersurfer.tk:6969/announce630
Onlineudp://tracker.zer0day.to:1337/announce00
Onlineudp://tracker.open-internet.nl:6969/announce00

Files inside this torrent

FILENAMESIZE
icon Venom (2018) 720p English HDCAM x264 Mp3 by Full4movies.mkv765 MB